[Login] or [Signup]
Login
Username:
Password:
[Signup]
[Recover Account]


Poll


You must be logged in to view polls



Torrent Details For "Rodin 2017.1080p.BRRip.x264.AAC.5.1.-.Hon3yHD"

Rodin 2017.1080p.BRRip.x264.AAC.5.1.-.Hon3yHD

Download this torrent | Magnet Download
Health:
Seeds: 0
Leechers: 0
Completed:
Last Checked: 12-10-2018 15:19:03
External Torrent
Update Stats
Download Magnet


Poster
No poster


Watch-Free-HD     Download

Details
Name:Rodin 2017.1080p.BRRip.x264.AAC.5.1.-.Hon3yHD
Description:




       

2017.1080p.BRRip.x264.AAC.5.1.-.Hon3yHD.mkv
Format                      : Matroska
Format version              : Version 4 / Version 2
File size                   : 2.36 GiB
Duration                    : 2 h 0 min
Overall bit rate            : 2 820 kb/s
Movie name                  : Rodin 2017.1080p.BRRip.x264.AAC.5.1.-.Hon3yHD

Video
ID                          : 1
Format                      : AVC
Format/Info                 : Advanced Video Codec
Format profile              : [email protected]
Format settings             : CABAC / 8 Ref Frames
Format settings, CABAC      : Yes
Format settings, ReFrames   : 8 frames
Codec ID                    : V_MPEG4/ISO/AVC
Duration                    : 2 h 0 min
Bit rate                    : 2 500 kb/s
Width                       : 1 920 pixels
Height                      : 808 pixels
Display aspect ratio        : 2.40:1
Frame rate mode             : Constant
Frame rate                  : 23.976 (24000/1001) FPS
Color space                 : YUV
Chroma subsampling          : 4:2:0
Bit depth                   : 8 bits
Scan type                   : Progressive

Audio
ID                          : 2
Format                      : AAC
Format/Info                 : Advanced Audio Codec
Format profile              : LC
Codec ID                    : A_AAC-2
Duration                    : 2 h 0 min
Bit rate                    : 340 kb/s
Channel(s)                  : 6 channels
Channel positions           : Front: L C R, Side: L R, LFE
Sampling rate               : 48.0 kHz
Frame rate                  : 46.875 FPS (1024 SPF)
Compression mode            : Lossy
Delay relative to video     : 9 ms
Stream size                 : 292 MiB (12%)
Title                       : Hon3yHD.org
Language                    : French

Text
ID                          : 3
Format                      : UTF-8
Codec ID                    : S_TEXT/UTF8
Codec ID/Info               : UTF-8 Plain Text
Duration                    : 1 h 53 min
Bit rate                    : 38 b/s
Count of elements           : 1131
Stream size                 : 32.1 KiB (0%)
Title                       : Hon3yHD.org
Language                    : English

For more Exclusive & Quality Stuff Visit :: Hon3yHD

 

Category:Movies > HDRips
Lang:French  French
Total Size:2.39 GB
Info Hash:9214dcffd1aeae232b2b2b5919ba81fb60765883
Added By:Hon3y
Date Added:12-10-2018 15:19:03
Views:46
Hits:0

Download Torrent

Ratings:Not Yet Rated (Log in to rate it)


Tracker:
udp://tracker.coppersurfer.tk:6969/announce


File List: 


Comments

No comments still posted

Powered by 10 Hamsters v2-svn -|- Page Generated In 0.466522 secs.
-|- RSS FEED
Theme By: Nikkbu