[Login] or [Signup]
Login
Username:
Password:
[Signup]
[Recover Account]


Poll


You must be logged in to view polls



Torrent Details For "Page 16 (2018) Hindi Movie - 1CD - HDTVRip[x264 - AAC3(5.1Ch)]"

Page 16 (2018) Hindi Movie - 1CD - HDTVRip[x264 - AAC3(5.1Ch)]

Download this torrent | Magnet Download
Health:
Seeds: 17
Leechers: 60
Completed: 31 
Last Checked: 13-10-2018 14:02:01
External Torrent
Update Stats
Download Magnet


Poster


iMDB
Title: Page 16
Year: 2018
Votes: 6
Rating: 3.8/10
Language: Hindi
Director: Shamshad Pathan
Writing By: Shamshad Pathan,Vikas Singh,
Produced By: Abhishek Sharma Monty,Shahzad Pathan,
Music: Asif Chandwani
Cast:
Aseem Ali Khan as Ajay
Bidita Bag as Jessica
Kiran Kumar as Dr. Mathur
Zakir Hussain as Vikram Singhaniya
Steven a Dsouza as Michal's Right hand Man
Master Aryan as Harsh
Bani as Sanjana
Andaj Khan as Sultan Khan
Nattha as Omkar
Shahzad Pathan as Michal


Watch-Free-HD     Download

Details
Name:Page 16 (2018) Hindi Movie - 1CD - HDTVRip[x264 - AAC3(5.1Ch)]
Description:
   Page 16 (2018) Hindi Movie - 1CD -
HDTVRip[x264 - AAC3(5.1Ch)]    
 





General
Format                                   : Matroska
Format version                           : Version 4
File size                                : 700 MiB
Duration                                 : 2 h 6 min

Video
ID                                       : 1
Format                                   : AVC
Format/Info                              : Advanced Video Codec
Format profile                           : [email protected]
Format settings                          : CABAC / 4 Ref Frames
Format settings, CABAC                   : Yes
Format settings, RefFrames               : 4 frames
Codec ID                                 : V_MPEG4/ISO/AVC
Duration                                 : 2 h 6 min
Bit rate                                 : 641 kb/s
Width                                    : 720 pixels
Height                                   : 304 pixels
Display aspect ratio                     : 2.35:1
Frame rate mode                          : Constant
Frame rate                               : 25.000 FPS
Color space                              : YUV
Chroma subsampling                       : 4:2:0
Bit depth                                : 8 bits
Scan type                                : Progressive
Bits/(Pixel*Frame)                       : 0.117
Stream size                              : 582 MiB (83%)

Audio
ID                                       : 2
Format                                   : AAC LC SBR
Commercial name                          : HE-AAC
Format settings                          : Explicit
Codec ID                                 : A_AAC-2
Duration                                 : 2 h 6 min
Bit rate                                 : 128 kb/s
Channel(s)                               : 6 channels
Channel layout                           : C L R Ls Rs LFE
Sampling rate                            : 48.0 kHz
Stream size                              : 116 MiB (17%)


 Thumbnail  






Category:Movies > Bollywood
Lang:Hindi
Total Size:700.06 MB
Info Hash:9f18240b8cacd2185c13cd6abda72bfdea9190db
Added By:CyberTron
Date Added:12-10-2018 12:57:50
Views:591
Hits:21

Download Torrent

Ratings:Not Yet Rated (Log in to rate it)

  


Tracker:
udp://tracker.trackerfix.com:80/announce


File List: 


Comments

No comments still posted

Powered by 10 Hamsters v2-svn -|- Page Generated In 0.732020 secs.
-|- RSS FEED
Theme By: Nikkbu