[Login] or [Signup]
Login
Username:
Password:
[Signup]
[Recover Account]


Poll


You must be logged in to view polls



Torrent Details For "Elite.S01.1080p.NF.WEB-DL.ENGLISH.SPA.Dual.Audio.DDP5.1.x264.MSUBS-FLX-KartiKing [Élite Season..."

Elite.S01.1080p.NF.WEB-DL.ENGLISH.SPA.Dual.Audio.DDP5.1.x264.MSUBS-FLX-KartiKing [Élite Season...

Download this torrent | Magnet Download
Health:
Seeds: 0
Leechers: 0
Completed:
Last Checked: 12-10-2018 08:31:56
External Torrent
Update Stats
Download Magnet


Poster


iMDB
Title: Élite
Year: 2018
Runtime: 60 minutes
Votes: 2875
Rating: 7.9/10
Language: Spanish
Director: Ramón Salazar
Dani de la Orden
Writing By: Darío Madrona,Carlos Montero,
Produced By: Diego Betancor,Maria Cervera,Iñaki Juaristi,Darío Madrona,Carlos Montero,Francisco Ramos,Ashlin Yu,
Music: Lucas Vidal
Cast:
Omar Ayuso as Omar 8 episodes, 2018
Miguel Bernardeau as Guzmán 8 episodes, 2018
Mina El Hammani as Nadia 8 episodes, 2018
Itzan Escamilla as Samuel García Domínguez 8 episodes, 2018
Ester Expósito as Carla 8 episodes, 2018
Miguel Herrán as Christian 8 episodes, 2018
Jaime Lorente as Nano 8 episodes, 2018
Lola Marceli as Beatriz 8 episodes, 2018
Danna Paola as Lu 8 episodes, 2018
María Pedraza as Marina 8 episodes, 2018
Trailers:
Tráiler [OV]
Official Trailer
"Party" Teaser


Watch-Free-HD     Download

Details
Name:Elite.S01.1080p.NF.WEB-DL.ENGLISH.SPA.Dual.Audio.DDP5.1.x264.MSUBS-FLX-KartiKing [Élite Season...
Description:
Elite.S01.1080p.NF.WEB-DL.ENGLISH.SPA.Dual.Audio.DDP5.1.x264.MSUBS-FLX-KartiKing [Élite Season 1] [Exclusive] 12GB

 
 

INFO :-

Visit & Support  www.moviezaddiction.website

Contains Both English and Spanish Untouched E-AC3 640kbps (DDP5.1) Audios with Multi SUBS !

English Audio [1st On Net]

 

Mediainfo :-

 http://nfomation.net/download.../elite_KartiKing.txt

Format                                   : Matroska
Format version                           : Version 4
File size                                : 1.77 GiB
Duration                                 : 55 min 56 s
Overall bit rate mode                    : Variable
Overall bit rate                         : 4 531 kb/s

Video
ID                                       : 3
Format                                   : AVC
Format/Info                              : Advanced Video Codec
Format profile                           : [email protected]
Format settings                          : CABAC / 3 Ref Frames
Format settings, CABAC                   : Yes
Format settings, RefFrames               : 3 frames
Codec ID                                 : V_MPEG4/ISO/AVC
Duration                                 : 55 min 56 s
Bit rate mode                            : Variable
Bit rate                                 : 3 320 kb/s
Maximum bit rate                         : 4 980 kb/s
Width                                    : 1 920 pixels
Height                                   : 1 080 pixels
Display aspect ratio                     : 16:9
Frame rate mode                          : Constant
Frame rate                               : 25.000 FPS
Color space                              : YUV
Chroma subsampling                       : 4:2:0
Bit depth                                : 8 bits
Scan type                                : Progressive
Bits/(Pixel*Frame)                       : 0.064
Stream size                              : 1.27 GiB (72%)
Default                                  : Yes
Forced                                   : No

Audio #1
ID                                       : 1
Format                                   : E-AC-3
Format/Info                              : Enhanced AC-3
Commercial name                          : Dolby Digital Plus
Codec ID                                 : A_EAC3
Duration                                 : 55 min 56 s
Bit rate mode                            : Constant
Bit rate                                 : 640 kb/s
Channel(s)                               : 6 channels
Channel layout                           : L R C LFE Ls Rs
Sampling rate                            : 48.0 kHz
Frame rate                               : 31.250 FPS (1536 SPF)
Compression mode                         : Lossy
Stream size                              : 256 MiB (14%)
Language                                 : English
Service kind                             : Complete Main
Default                                  : Yes
Forced                                   : Yes

Audio #2
ID                                       : 4
Format                                   : E-AC-3
Format/Info                              : Enhanced AC-3
Commercial name                          : Dolby Digital Plus
Codec ID                                 : A_EAC3
Duration                                 : 55 min 56 s
Bit rate mode                            : Constant
Bit rate                                 : 640 kb/s
Channel(s)                               : 6 channels
Channel layout                           : L R C LFE Ls Rs
Sampling rate                            : 48.0 kHz
Frame rate                               : 31.250 FPS (1536 SPF)
Compression mode                         : Lossy
Stream size                              : 256 MiB (14%)
Language                                 : Spanish
Service kind                             : Complete Main
Default                                  : No
Forced                                   : No

+

Multi SUBS


 

SCREENSHOTS :-

 
 
 
 

KartiKing

 


Category:TV > WEB-HD
Lang:English  English
Total Size:12.09 GB
Info Hash:4ab42b87b62293fa54d530a79b4170a73ca0701f
Added By:KartiKing
Date Added:12-10-2018 08:31:56
Views:98
Hits:5

Download Torrent

Ratings:Not Yet Rated (Log in to rate it)


Tracker:
udp://tracker.coppersurfer.tk:6969/announce


File List: 


Comments

No comments still posted

Powered by 10 Hamsters v2-svn -|- Page Generated In 1.236892 secs.
-|- RSS FEED
Theme By: Nikkbu