[Login] or [Signup]
Login
Username:
Password:
[Signup]
[Recover Account]


Poll


You must be logged in to view polls



Torrent Details For "LEGO DC Comics Super Heroes Aquaman Rage of Atlantis 2018 720p BluRay x264 MSub [MW]"

LEGO DC Comics Super Heroes Aquaman Rage of Atlantis 2018 720p BluRay x264 MSub [MW]

Download this torrent | Magnet Download
Health:
Seeds: 76
Leechers: 82
Completed: 51 
Last Checked: 11-10-2018 18:21:22
External Torrent
Update Stats
Download Magnet


Poster
No poster


Watch-Free-HD     Download

Details
Name:LEGO DC Comics Super Heroes Aquaman Rage of Atlantis 2018 720p BluRay x264 MSub [MW]
Description:

 


General
Format                                   : Matroska
Format version                           : Version 4 / Version 2
File size                                : 862 MiB
Duration                                 : 1 h 16 min
Overall bit rate                         : 1 569 kb/s

Video
ID                                       : 1
Format                                   : AVC
Format/Info                              : Advanced Video Codec
Format profile                           : [email protected]
Format settings                          : CABAC / 4 Ref Frames
Format settings, CABAC                   : Yes
Format settings, RefFrames               : 4 frames
Codec ID                                 : V_MPEG4/ISO/AVC
Duration                                 : 1 h 16 min
Bit rate                                 : 1 400 kb/s
Width                                    : 1 280 pixels
Height                                   : 720 pixels
Display aspect ratio                     : 16:9
Frame rate mode                          : Constant
Frame rate                               : 23.976 (24000/1001) FPS
Color space                              : YUV
Chroma subsampling                       : 4:2:0
Bit depth                                : 8 bits
Scan type                                : Progressive
Bits/(Pixel*Frame)                       : 0.063
Stream size                              : 767 MiB (89%)
Writing library                          : x264 core 155 r2901 7d0ff22
Default                                  : Yes
Forced                                   : No

Audio
ID                                       : 2
Format                                   : AAC
Format/Info                              : Advanced Audio Codec
Format profile                           : HE-AAC / LC
Format settings                          : Explicit
Codec ID                                 : A_AAC-2
Duration                                 : 1 h 16 min
Bit rate                                 : 127 kb/s
Channel(s)                               : 2 channels
Channel positions                        : Front: L R
Sampling rate                            : 48.0 kHz / 24.0 kHz
Frame rate                               : 23.438 FPS (1024 SPF)
Compression mode                         : Lossy
Stream size                              : 69.6 MiB (8%)
Language                                 : English
Default                                  : Yes
Forced                                   : No

Subtitles:--

Language                                 : English
Language                                 : German
Language                                 : Danish
Language                                 : Spanish
Language                                 : Finnish
Language                                 : French
Language                                 : Icelandic
Language                                 : Japanese
Language                                 : Norwegian
Language                                 : Swedish


 http://pichub.site/image/dDqCB
 http://pichub.site/image/dE4rY
 http://pichub.site/image/dEfQ6
 http://pichub.site/image/dEM7t
 http://pichub.site/image/dEYN4
 http://pichub.site/image/dEaZp

Category:Movies > HDRips
Lang:English  English
Total Size:862.49 MB
Info Hash:a1dfc1b22e782dc7e0060fe851676c243739a544
Added By:Freaky
Date Added:11-10-2018 18:21:16
Views:112
Hits:4

Download Torrent

Ratings:Not Yet Rated (Log in to rate it)


Tracker:
udp://tracker.coppersurfer.tk:6969/announce


File List: 


Comments

No comments still posted

Powered by 10 Hamsters v2-svn -|- Page Generated In 0.572909 secs.
-|- RSS FEED
Theme By: Nikkbu