[Login] or [Signup]
Login
Username:
Password:
[Signup]
[Recover Account]


Poll


You must be logged in to view polls



Torrent Details For "Before Someone Gets Hurt 2018 1080p WEB-DL DD 5.1 x264 [MW]"

Before Someone Gets Hurt 2018 1080p WEB-DL DD 5.1 x264 [MW]

Download this torrent | Magnet Download
Health:
Seeds: 25
Leechers: 117
Completed: 25 
Last Checked: 11-07-2018 22:37:37
External Torrent
Update Stats
Download Magnet


Poster
No poster


Watch-Free-HD     Download

Details
Name:Before Someone Gets Hurt 2018 1080p WEB-DL DD 5.1 x264 [MW]
Description:

 

General
Format                                   : Matroska
Format version                           : Version 4 / Version 2
File size                                : 1.80 GiB
Duration                                 : 1 h 25 min
Overall bit rate                         : 3 020 kb/s

Video
ID                                       : 2
Format                                   : AVC
Format/Info                              : Advanced Video Codec
Format profile                           : [email protected]
Format settings                          : CABAC / 4 Ref Frames
Format settings, CABAC                   : Yes
Format settings, RefFrames               : 4 frames
Codec ID                                 : V_MPEG4/ISO/AVC
Duration                                 : 1 h 25 min
Bit rate                                 : 2 700 kb/s
Width                                    : 1 904 pixels
Height                                   : 1 064 pixels
Display aspect ratio                     : 16:9
Frame rate mode                          : Constant
Frame rate                               : 23.976 (24000/1001) FPS
Color space                              : YUV
Chroma subsampling                       : 4:2:0
Bit depth                                : 8 bits
Scan type                                : Progressive
Bits/(Pixel*Frame)                       : 0.056
Stream size                              : 1.57 GiB (87%)
Writing library                          : x264 core 155 r2901 7d0ff22
Default                                  : Yes
Forced                                   : No
Color range                              : Limited

Audio
ID                                       : 1
Format                                   : AC-3
Format/Info                              : Audio Coding 3
Codec ID                                 : A_AC3
Duration                                 : 1 h 25 min
Bit rate mode                            : Constant
Bit rate                                 : 384 kb/s
Channel(s)                               : 6 channels
Channel positions                        : Front: L C R, Side: L R, LFE
Sampling rate                            : 48.0 kHz
Frame rate                               : 31.250 FPS (1536 SPF)
Bit depth                                : 16 bits
Compression mode                         : Lossy
Stream size                              : 235 MiB (13%)
Language                                 : English
Service kind                             : Complete Main
Default                                  : Yes
Forced                                   : No

Menu
00:00:00.000                             : en:01
00:07:11.973                             : en:02
00:12:06.017                             : en:03
00:17:05.983                             : en:04
00:21:59.026                             : en:05
00:27:13.006                             : en:06
00:32:37.956                             : en:07
00:39:02.966                             : en:08
00:45:02.033                             : en:09
00:50:43.958                             : en:10
00:55:36.959                             : en:11
01:01:18.967                             : en:12
01:07:59.993                             : en:13
01:13:37.955                             : en:14
01:17:38.988                             : en:15
01:23:05.022                             : en:16


Click To Enlarge Image

 
 
 
 
 
 

Category:Movies > HDRips
Lang:English  English
Total Size:1.80 GB
Info Hash:02a5dc1e703912f75ba2c98a814f90cc7a7e69de
Added By:Freaky
Date Added:11-07-2018 22:37:25
Views:155
Hits:4

Download Torrent

Ratings:Not Yet Rated (Log in to rate it)


Tracker:
udp://tracker.coppersurfer.tk:6969/announce


File List: 


Comments

No comments still posted

Powered by 10 Hamsters v2-svn -|- Page Generated In 3.648572 secs.
-|- RSS FEED
Theme By: Nikkbu