[Login] or [Signup]
Login
Username:
Password:
[Signup]
[Recover Account]


Poll


You must be logged in to view polls



Torrent Details For "Ant-Man and The Wasp 2018 NEW 720p HDCAM x264 [MW]"

Ant-Man and The Wasp 2018 NEW 720p HDCAM x264 [MW]

Download this torrent | Magnet Download
Health:
Seeds: 476
Leechers: 786
Completed: 761 
Last Checked: 09-07-2018 16:22:56
External Torrent
Update Stats
Download Magnet


Poster
No poster


Watch-Free-HD     Download

Details
Name:Ant-Man and The Wasp 2018 NEW 720p HDCAM x264 [MW]
Description:

 


General
Format                                   : Matroska
Format version                           : Version 4 / Version 2
File size                                : 1.23 GiB
Duration                                 : 1 h 48 min
Overall bit rate                         : 1 628 kb/s

Video
ID                                       : 1
Format                                   : AVC
Format/Info                              : Advanced Video Codec
Format profile                           : [email protected]
Format settings                          : CABAC / 4 Ref Frames
Format settings, CABAC                   : Yes
Format settings, RefFrames               : 4 frames
Codec ID                                 : V_MPEG4/ISO/AVC
Duration                                 : 1 h 48 min
Bit rate                                 : 1 500 kb/s
Width                                    : 1 168 pixels
Height                                   : 508 pixels
Display aspect ratio                     : 2.25:1
Frame rate mode                          : Constant
Frame rate                               : 29.970 (30000/1001) FPS
Color space                              : YUV
Chroma subsampling                       : 4:2:0
Bit depth                                : 8 bits
Scan type                                : Progressive
Bits/(Pixel*Frame)                       : 0.084
Stream size                              : 1.13 GiB (92%)
Writing library                          : x264 core 155 r2901 7d0ff22
Default                                  : Yes
Forced                                   : No
Color range                              : Limited

Audio
ID                                       : 2
Format                                   : AAC
Format/Info                              : Advanced Audio Codec
Format profile                           : HE-AAC / LC
Format settings                          : Explicit
Codec ID                                 : A_AAC-2
Duration                                 : 1 h 48 min
Bit rate                                 : 127 kb/s
Channel(s)                               : 2 channels
Channel positions                        : Front: L R
Sampling rate                            : 48.0 kHz / 24.0 kHz
Frame rate                               : 23.438 FPS (1024 SPF)
Compression mode                         : Lossy
Stream size                              : 98.1 MiB (8%)
Language                                 : English
Default                                  : Yes
Forced                                   : No


Click To Enlarge Image
 
 
 
 
 
 
 

Category:Movies > Pre-Releases
Lang:English  English
Total Size:1.23 GB
Info Hash:ff86e510bd69acfe934e264219a1fd54b0bdb874
Added By:Freaky
Date Added:09-07-2018 16:22:33
Views:400
Hits:37

Download Torrent

Ratings:Not Yet Rated (Log in to rate it)


Tracker:
udp://tracker.coppersurfer.tk:6969/announce


File List: 


Comments

No comments still posted

Powered by 10 Hamsters v2-svn -|- Page Generated In 4.198139 secs.
-|- RSS FEED
Theme By: Nikkbu