[Login] or [Signup]
Login
Username:
Password:
[Signup]
[Recover Account]


Poll


You must be logged in to view polls



Torrent Details For "Big Legend 2018 1080p WEB-DL DD 5.1 x264 [MW]"

Big Legend 2018 1080p WEB-DL DD 5.1 x264 [MW]

Download this torrent | Magnet Download
Health:
Seeds: 42
Leechers: 152
Completed: 42 
Last Checked: 07-07-2018 22:41:41
External Torrent
Update Stats
Download Magnet


Poster
No poster


Watch-Free-HD     Download

Details
Name:Big Legend 2018 1080p WEB-DL DD 5.1 x264 [MW]
Description:

 


General
Format                                   : Matroska
Format version                           : Version 4 / Version 2
File size                                : 1.78 GiB
Duration                                 : 1 h 29 min
Overall bit rate                         : 2 853 kb/s

Video
ID                                       : 1
Format                                   : AVC
Format/Info                              : Advanced Video Codec
Format profile                           : [email protected]
Format settings                          : CABAC / 4 Ref Frames
Format settings, CABAC                   : Yes
Format settings, RefFrames               : 4 frames
Codec ID                                 : V_MPEG4/ISO/AVC
Duration                                 : 1 h 29 min
Bit rate                                 : 2 500 kb/s
Width                                    : 1 920 pixels
Height                                   : 800 pixels
Display aspect ratio                     : 2.40:1
Frame rate mode                          : Constant
Frame rate                               : 23.976 (24000/1001) FPS
Color space                              : YUV
Chroma subsampling                       : 4:2:0
Bit depth                                : 8 bits
Scan type                                : Progressive
Bits/(Pixel*Frame)                       : 0.068
Stream size                              : 1.54 GiB (86%)
Writing library                          : x264 core 155 r2901 7d0ff22
Default                                  : Yes
Forced                                   : No

Audio
ID                                       : 2
Format                                   : AC-3
Format/Info                              : Audio Coding 3
Codec ID                                 : A_AC3
Duration                                 : 1 h 29 min
Bit rate mode                            : Constant
Bit rate                                 : 384 kb/s
Channel(s)                               : 6 channels
Channel positions                        : Front: L C R, Side: L R, LFE
Sampling rate                            : 48.0 kHz
Frame rate                               : 31.250 FPS (1536 SPF)
Bit depth                                : 16 bits
Compression mode                         : Lossy
Stream size                              : 245 MiB (13%)
Language                                 : English
Service kind                             : Complete Main
Default                                  : Yes
Forced                                   : No

Menu
00:00:00.000                             : en:1
00:05:27.410                             : en:2
00:10:09.192                             : en:3
00:15:30.805                             : en:4
00:23:34.163                             : en:5
00:27:09.002                             : en:6
00:34:20.559                             : en:7
00:41:05.880                             : en:8
00:44:15.319                             : en:9
00:49:40.561                             : en:10
00:55:54.226                             : en:11
00:59:31.860                             : en:12
01:05:35.932                             : en:13
01:12:20.336                             : en:14
01:16:37.802                             : en:15
01:21:58.372                             : en:16


Click To Enlarge Image

 
 
 
 
 
 

Category:Movies > HDRips
Lang:English  English
Total Size:1.78 GB
Info Hash:a7d1a439a5e49f8652ff45010bd6d83651a90bc5
Added By:Freaky
Date Added:07-07-2018 22:41:27
Views:157
Hits:3

Download Torrent

Ratings:Not Yet Rated (Log in to rate it)


Tracker:
udp://tracker.coppersurfer.tk:6969/announce


File List: 


Comments

No comments still posted

Powered by 10 Hamsters v2-svn -|- Page Generated In 3.700695 secs.
-|- RSS FEED
Theme By: Nikkbu