[Login] or [Signup]
Login
Username:
Password:
[Signup]
[Recover Account]


Poll


You must be logged in to view polls



Torrent Details For "Dead Sexy 2018 1080p WEB-DL x264 [MW]"

Dead Sexy 2018 1080p WEB-DL x264 [MW]

Download this torrent | Magnet Download
Health:
Seeds: 134
Leechers: 146
Completed: 219 
Last Checked: 06-07-2018 17:36:39
External Torrent
Update Stats
Download Magnet


Poster
No poster


Watch-Free-HD     Download

Details
Name:Dead Sexy 2018 1080p WEB-DL x264 [MW]
Description:

 


General
Format                                   : Matroska
Format version                           : Version 4 / Version 2
File size                                : 1.51 GiB
Duration                                 : 1 h 23 min
Overall bit rate                         : 2 583 kb/s

Video
ID                                       : 1
Format                                   : AVC
Format/Info                              : Advanced Video Codec
Format profile                           : [email protected]
Format settings                          : CABAC / 4 Ref Frames
Format settings, CABAC                   : Yes
Format settings, RefFrames               : 4 frames
Codec ID                                 : V_MPEG4/ISO/AVC
Duration                                 : 1 h 23 min
Bit rate                                 : 2 500 kb/s
Width                                    : 1 908 pixels
Height                                   : 1 000 pixels
Display aspect ratio                     : 1.908
Frame rate mode                          : Constant
Frame rate                               : 23.976 (24000/1001) FPS
Color space                              : YUV
Chroma subsampling                       : 4:2:0
Bit depth                                : 8 bits
Scan type                                : Progressive
Bits/(Pixel*Frame)                       : 0.055
Stream size                              : 1.44 GiB (95%)
Writing library                          : x264 core 155 r2901 7d0ff22
Default                                  : Yes
Forced                                   : No

Audio
ID                                       : 2
Format                                   : AAC
Format/Info                              : Advanced Audio Codec
Format profile                           : LC
Codec ID                                 : A_AAC-2
Duration                                 : 1 h 23 min
Bit rate                                 : 127 kb/s
Channel(s)                               : 2 channels
Channel positions                        : Front: L R
Sampling rate                            : 48.0 kHz
Frame rate                               : 46.875 FPS (1024 SPF)
Compression mode                         : Lossy
Stream size                              : 76.1 MiB (5%)
Language                                 : English
Default                                  : Yes
Forced                                   : No

Menu
00:00:00.000                             : en:1
00:03:32.003                             : en:2
00:12:48.017                             : en:3
00:21:57.983                             : en:4
00:32:50.010                             : en:5
00:42:56.991                             : en:6
00:50:50.005                             : en:7
01:00:25.997                             : en:8
01:15:49.003                             : en:9


Click To Enlarge Image

 
 
 
 
 
 

Category:Movies > HDRips
Lang:English  English
Total Size:1.51 GB
Info Hash:fd965f035b7803bea09aa31e63f2ab595604da7f
Added By:Freaky
Date Added:06-07-2018 17:36:22
Views:399
Hits:28

Download Torrent

Ratings:Not Yet Rated (Log in to rate it)


Tracker:
udp://tracker.coppersurfer.tk:6969/announce


File List: 


Comments

No comments still posted

Powered by 10 Hamsters v2-svn -|- Page Generated In 3.641166 secs.
-|- RSS FEED
Theme By: Nikkbu