[Login] or [Signup]
Login
Username:
Password:
[Signup]
[Recover Account]


Poll


You must be logged in to view polls



Torrent Details For "A Quiet Place 2018 1080p BluRay x264 DTS [MW]"

A Quiet Place 2018 1080p BluRay x264 DTS [MW]

Download this torrent | Magnet Download
Health:
Seeds: 94
Leechers: 176
Completed: 74 
Last Checked: 02-07-2018 16:30:26
External Torrent
Update Stats
Download Magnet


Poster
No poster


Watch-Free-HD     Download

Details
Name:A Quiet Place 2018 1080p BluRay x264 DTS [MW]
Description:

 

General
Format                                   : Matroska
Format version                           : Version 4 / Version 2
File size                                : 2.00 GiB
Duration                                 : 1 h 30 min
Overall bit rate                         : 3 178 kb/s

Video
ID                                       : 1
Format                                   : AVC
Format/Info                              : Advanced Video Codec
Format profile                           : [email protected]
Format settings                          : CABAC / 4 Ref Frames
Format settings, CABAC                   : Yes
Format settings, RefFrames               : 4 frames
Codec ID                                 : V_MPEG4/ISO/AVC
Duration                                 : 1 h 30 min
Bit rate                                 : 2 500 kb/s
Width                                    : 1 920 pixels
Height                                   : 800 pixels
Display aspect ratio                     : 2.40:1
Frame rate mode                          : Constant
Frame rate                               : 23.976 (24000/1001) FPS
Color space                              : YUV
Chroma subsampling                       : 4:2:0
Bit depth                                : 8 bits
Scan type                                : Progressive
Bits/(Pixel*Frame)                       : 0.068
Stream size                              : 1.52 GiB (76%)
Writing library                          : x264 core 155 r2901 7d0ff22
Default                                  : Yes
Forced                                   : No

Audio
ID                                       : 6
Format                                   : DTS
Format/Info                              : Digital Theater Systems
Codec ID                                 : A_DTS
Duration                                 : 1 h 30 min
Bit rate mode                            : Constant
Bit rate                                 : 756 kb/s
Channel(s)                               : 6 channels
Channel positions                        : Front: L C R, Side: L R, LFE
Sampling rate                            : 48.0 kHz
Frame rate                               : 93.750 FPS (512 SPF)
Bit depth                                : 16 bits
Compression mode                         : Lossy
Stream size                              : 488 MiB (24%)
Language                                 : English
Default                                  : Yes
Forced                                   : No

Text #1
ID                                       : 2
Format                                   : UTF-8
Codec ID                                 : S_TEXT/UTF8
Codec ID/Info                            : UTF-8 Plain Text
Duration                                 : 1 h 11 min
Bit rate                                 : 3 b/s
Count of elements                        : 114
Stream size                              : 1.87 KiB (0%)
Title                                    : FORCED
Language                                 : English
Default                                  : Yes
Forced                                   : Yes

Text #2
ID                                       : 3
Format                                   : UTF-8
Codec ID                                 : S_TEXT/UTF8
Codec ID/Info                            : UTF-8 Plain Text
Duration                                 : 1 h 11 min
Bit rate                                 : 5 b/s
Count of elements                        : 168
Stream size                              : 2.91 KiB (0%)
Title                                    : English-SRT
Language                                 : English
Default                                  : No
Forced                                   : No

Text #3
ID                                       : 4
Format                                   : PGS
Muxing mode                              : zlib
Codec ID                                 : S_HDMV/PGS
Codec ID/Info                            : Picture based subtitle format used on BDs/HD-DVDs
Duration                                 : 1 h 11 min
Bit rate                                 : 707 b/s
Count of elements                        : 302
Stream size                              : 372 KiB (0%)
Title                                    : English-PGS
Language                                 : English
Default                                  : No
Forced                                   : No

Text #4
ID                                       : 5
Format                                   : PGS
Muxing mode                              : zlib
Codec ID                                 : S_HDMV/PGS
Codec ID/Info                            : Picture based subtitle format used on BDs/HD-DVDs
Duration                                 : 1 h 22 min
Bit rate                                 : 1 513 b/s
Count of elements                        : 652
Stream size                              : 910 KiB (0%)
Title                                    : English-SDH-PGS
Language                                 : English
Default                                  : No
Forced                                   : No

Menu
00:00:00.000                             : en:00:00:00.000
00:10:19.244                             : en:00:10:19.160
00:14:38.044                             : en:00:14:38.044
00:21:52.937                             : en:00:21:52.937
00:25:09.758                             : en:00:25:09.717
00:31:05.197                             : en:00:31:05.197
00:36:23.431                             : en:00:36:23.431
00:43:47.333                             : en:00:43:47.333
00:47:42.735                             : en:00:47:42.735
00:53:48.225                             : en:00:53:48.225
01:00:31.461                             : en:01:00:31.461
01:05:55.410                             : en:01:05:55.410
01:10:57.920                             : en:01:10:57.879
01:15:29.316                             : en:01:15:29.150
01:23:47.356                             : en:01:23:47.314


Click To Enlarge Image
 
 
 
 
 
 

Category:Movies > 1080P Bluray
Lang:English  English
Total Size:2.00 GB
Info Hash:b13edd03ba4665903323cac594aa50e6db2c1f76
Added By:Freaky
Date Added:02-07-2018 16:30:16
Views:219
Hits:27

Download Torrent

Ratings:Not Yet Rated (Log in to rate it)


Tracker:
udp://tracker.coppersurfer.tk:6969/announce


File List: 


Comments

No comments still posted

Powered by 10 Hamsters v2-svn -|- Page Generated In 3.354495 secs.
-|- RSS FEED
Theme By: Nikkbu