[Login] or [Signup]
Login
Username:
Password:
[Signup]
[Recover Account]


Poll


You must be logged in to view polls



Torrent Details For "Sanju 2018 Hindi 720p Pre DVDRip x264 AAC { TaRa }.mkv"

Sanju 2018 Hindi 720p Pre DVDRip x264 AAC { TaRa }.mkv

Download this torrent | Magnet Download
Health:
Seeds: 6,182
Leechers: 550
Completed: 2,446,282 
Last Checked: 12-10-2018 09:58:47
External Torrent
Update Stats
Download Magnet


Poster


iMDB
Imdb Picture Title: Sanju
Year: 2018
Runtime: 155 minutes
Votes: 2223
Rating: 9.3/10
Language: Hindi
Country: India
All Genres: Biography, Drama
Plot Outline: Few lives in our times are as dramatic and enigmatic as the saga of Sanjay Dutt. Coming from a family of cinema legends, he himself became a film star, and then saw dizzying heights and darkest depths: adulation of die-hard fans, unending battles with various addictions, brushes with the underworld, prison terms, loss of loved ones, and the haunting speculation that he might or might not be a terrorist. Sanju is in turns a hilarious and heartbreaking exploration of one man's battle against his own wild self and the formidable external forces trying to crush him. It depicts the journey of a man through everything that life can throw at him. Some true stories leave you thinking "did this really happen?" This is one such unbelievable story that happens to be true.


Tagline: One Man . . . Many Lives
Director: Rajkumar Hirani
Writing By: Rajkumar Hirani,Abhijat Joshi,
Produced By: Aleem Allie,Nizam Allie,Mehboob Bawa,Vidhu Vinod Chopra,Noorie Hassan,Rajkumar Hirani,Sahil Khosla,Ilana Rossein,Sachin Utekar,
Music: Rohan Pradhan A.R. Rahman Sanjay Wandrekar
Cast:
Ranbir Kapoor as Sanjay Dutt
Sonam Kapoor as Ruby
Paresh Rawal as Sunil Dutt
Vicky Kaushal as Paresh Ghelani
Manisha Koirala as Nargis Dutt
Dia Mirza as Manyata Dutt
Anushka Sharma as Journalist
Boman Irani as Homi
Tabu as Herself
Jaideep Ahlawat as
Trailers:
Sanju Trailer
Sanju Teaser


Watch-Free-HD     Download

Details
Name:Sanju 2018 Hindi 720p Pre DVDRip x264 AAC { TaRa }.mkv
Description:

Sanju 2018 Hindi 720p Pre DVDRip x264 AAC { TaRa }.mkv
 

===================================================================
General
Complete name               : Sanju 2018 Hindi 720p Pre DVDRip x264 AAC { TaRa }.mkv
Format                      : Matroska
Format version              : Version 4 / Version 2
File size                   : 1.37 GiB
Duration                    : 2h 28mn
Overall bit rate            : 1 317 Kbps
===================================================================
Video
ID                          : 1
Format                      : AVC
Format/Info                 : Advanced Video Codec
Format profile              : [email protected]
Format settings, CABAC      : Yes
Format settings, ReFrames   : 4 frames
Codec ID                    : V_MPEG4/ISO/AVC
Duration                    : 2h 28mn
Bit rate                    : 1 187 Kbps
Width                       : 1 280 pixels
Height                      : 544 pixels
Display aspect ratio        : 2.35:1
Frame rate mode             : Constant
Frame rate                  : 25.000 fps
Color space                 : YUV
Chroma subsampling          : 4:2:0
Bit depth                   : 8 bits
Scan type                   : Progressive
Bits/(Pixel*Frame)          : 0.068
Stream size                 : 1.23 GiB (90%)
Title                       : ......:::::: TaRa :::::::.....
Language                    : Hindi
Default                     : Yes
Forced                      : No
===================================================================
Audio
ID                          : 2
Format                      : AAC
Format/Info                 : Advanced Audio Codec
Format profile              : LC
Codec ID                    : A_AAC
Duration                    : 2h 28mn
Bit rate                    : 128 Kbps
Channel(s)                  : 2 channels
Channel positions           : Front: L R
Sampling rate               : 44.1 KHz
Frame rate                  : 43.066 fps (1024 spf)
Compression mode            : Lossy
Stream size                 : 136 MiB (10%)
Title                       : ......:::::: TaRa :::::::.....
Language                    : Hindi
Default                     : Yes
Forced                      : No
===================================================================


 
 
 
 
 
 
 
 
 
 
 
 
 
 
 
 
 
 
 
 
 
 
 










 


Category:Movies > Bollywood
Lang:Hindi
Total Size:1.37 GB
Info Hash:587e9691f7a23b1eb2107f904584f142d6cb51ad
Added By:SkTaRa
Date Added:29-06-2018 19:24:25
Views:14,597
Hits:4,338

Download Torrent

Ratings:Not Yet Rated (Log in to rate it)

  


Tracker:
udp://tracker.coppersurfer.tk:6969/announce


File List: 


Comments

No comments still posted

Powered by 10 Hamsters v2-svn -|- Page Generated In 3.786906 secs.
-|- RSS FEED
Theme By: Nikkbu