[Login] or [Signup]
Login
Username:
Password:
[Signup]
[Recover Account]


Poll


You must be logged in to view polls



Torrent Details For "Deadpool 2 2018 720p HDTC V2 x264 AAC [MW]"

Deadpool 2 2018 720p HDTC V2 x264 AAC [MW]

Download this torrent | Magnet Download
Health:
Seeds: 1,317
Leechers: 219
Completed: 27,934 
Last Checked: 29-06-2018 11:30:39
External Torrent
Update Stats
Download Magnet


Poster


iMDB
Imdb Picture Title: Deadpool 2
Year: 2018
Runtime: 119 minutes
Votes: 11154
Rating: 8.5/10
Language: English
Country: USA
All Genres: Action, Adventure, Comedy, Sci-Fi
Plot Outline: After surviving a near fatal bovine attack, a disfigured cafeteria chef (Wade Wilson) struggles to fulfill his dream of becoming Mayberry's hottest bartender while also learning to cope with his lost sense of taste. Searching to regain his spice for life, as well as a flux capacitor, Wade must battle ninjas, the Yakuza, and a pack of sexually aggressive canines, as he journeys around the world to discover the importance of family, friendship, and flavor - finding a new taste for adventure and earning the coveted coffee mug title of World's Best Lover. Written by Twentieth Century Fox


Tagline: Prepare for the second coming.
Director: David Leitch
Writing By: Rhett Reese,Paul Wernick,Ryan Reynolds,Rob Liefeld,Fabian Nicieza,
Produced By: Simon Kinberg,Stan Lee,Jonathon Komack Martin,Kelly McCormick,Rhett Reese,Ryan Reynolds,Lauren Shuler Donner,Ethan Smith,Aditya Sood,Paul Wernick,
Music: Tyler Bates
Cast:
Josh Brolin as Nathan Summers / Cable
Ryan Reynolds as Wade / Deadpool
Morena Baccarin as Vanessa
Zazie Beetz as Domino
Brianna Hildebrand as Negasonic Teenage Warhead
Brad Pitt as Vanisher
Bill SkarsgÄrd as Zeitgeist
T.J. Miller as Weasel
Terry Crews as Bedlam
Rob Delaney as Peter
Trailers:
The Final Trailer
Official Trailer
Deadpool, Meet Cable - Trailer
Official Teaser
Deadpool 2


Watch-Free-HD     Download

Details
Name:Deadpool 2 2018 720p HDTC V2 x264 AAC [MW]
Description:

 

General
Format                                   : Matroska
Format version                           : Version 4 / Version 2
File size                                : 880 MiB
Duration                                 : 1 h 49 min
Overall bit rate                         : 1 124 kb/s

Video
ID                                       : 1
Format                                   : AVC
Format/Info                              : Advanced Video Codec
Format profile                           : [email protected]
Format settings                          : CABAC / 4 Ref Frames
Format settings, CABAC                   : Yes
Format settings, RefFrames               : 4 frames
Codec ID                                 : V_MPEG4/ISO/AVC
Duration                                 : 1 h 49 min
Bit rate                                 : 1 000 kb/s
Width                                    : 1 280 pixels
Height                                   : 548 pixels
Display aspect ratio                     : 2.35:1
Frame rate mode                          : Constant
Frame rate                               : 30.000 FPS
Color space                              : YUV
Chroma subsampling                       : 4:2:0
Bit depth                                : 8 bits
Scan type                                : Progressive
Bits/(Pixel*Frame)                       : 0.048
Stream size                              : 778 MiB (88%)
Writing library                          : x264 core 155 r2901 7d0ff22
Default                                  : Yes
Forced                                   : No

Audio
ID                                       : 2
Format                                   : AAC
Format/Info                              : Advanced Audio Codec
Format profile                           : LC
Codec ID                                 : A_AAC-2
Duration                                 : 1 h 49 min
Bit rate                                 : 127 kb/s
Channel(s)                               : 2 channels
Channel positions                        : Front: L R
Sampling rate                            : 48.0 kHz
Frame rate                               : 46.875 FPS (1024 SPF)
Compression mode                         : Lossy
Stream size                              : 99.5 MiB (11%)
Language                                 : English
Default                                  : Yes
Forced                                   : No


Click To Enlarge Image
 
 
 
 
 
 
 
 

Category:Movies > Pre-Releases
Lang:English  English
Total Size:879.62 MB
Info Hash:1b538d90454f06eb4d7b94f3964212766580b55c
Added By:Freaky
Date Added:24-06-2018 12:04:17
Views:6,068
Hits:384

Download Torrent

Ratings:Not Yet Rated (Log in to rate it)


Tracker:
udp://tracker.coppersurfer.tk:6969/announce


File List: 


Comments

No comments still posted

Powered by 10 Hamsters v2-svn -|- Page Generated In 4.719952 secs.
-|- RSS FEED
Theme By: Nikkbu