[Login] or [Signup]
Login
Username:
Password:
[Signup]
[Recover Account]


Poll


You must be logged in to view polls



Torrent Details For "The Purge Election Year 2016 720p Esub BluRay 5.1 Dual Audio English Hindi GOPISAHI"

The Purge Election Year 2016 720p Esub BluRay 5.1 Dual Audio English Hindi GOPISAHI

Download this torrent | Magnet Download
Health:
Seeds: 0
Leechers: 31
Completed: 1,215 
Last Checked: 23-05-2018 04:19:17
External Torrent
Update Stats
Download Magnet


Poster
No poster


Watch-Free-HD     Download

Details
Name:The Purge Election Year 2016 720p Esub BluRay 5.1 Dual Audio English Hindi GOPISAHI
Description:
 WWW.GOPISAHI.PW


[img]http://4.bp.blogspot.com/-PQGSVXqXDMc/WvRkNbOp0ZI/AAAAAAAAXMM/8Ld8I6sGJrI-
hBuPhzyguiaCt2qYU5ZCwCLcBGAs/s1600/32155826_376516382844833_6826453017768755200_n.jpg[/img]
General
Unique ID                      : 70213349534951564251973271291403654488 (0x34D29967905913642045170118BF5558)
Complete name                  : G:\film\dub\logy 720p\The Purge\The Purge Election Year 2016 720p Esub BluRay 5.1 Dual Audio English Hindi WWW.GOPISAHI.PW.mkv
Format                         : Matroska
Format version                 : Version 4 / Version 2
File size                      : 881 MiB
Duration                       : 1 h 48 min
Overall bit rate               : 1 131 kb/s
Movie name                     : The Purge Election Year 2016 GOPI SAHI
Encoded date                   : UTC 2018-05-10 15:19:54
Writing application            : mkvmerge v19.0.0 ('Brave Captain') 32-bit
Writing library                : libebml v1.3.5 + libmatroska v1.4.8

Video
ID                             : 1
Format                         : AVC
Format/Info                    : Advanced Video Codec
Format profile                 : [email protected]
Format settings                : CABAC / 5 Ref Frames
Format settings, CABAC         : Yes
Format settings, ReFrames      : 5 frames
Codec ID                       : V_MPEG4/ISO/AVC
Duration                       : 1 h 48 min
Bit rate                       : 949 kb/s
Width                          : 1 280 pixels
Height                         : 536 pixels
Display aspect ratio           : 2.40:1
Frame rate mode                : Constant
Frame rate                     : 23.976 (24000/1001) FPS
Color space                    : YUV
Chroma subsampling             : 4:2:0
Bit depth                      : 8 bits
Scan type                      : Progressive
Bits/(Pixel*Frame)             : 0.058
Stream size                    : 738 MiB (84%)
Title                          : WWW.GOPISAHI.PW
Writing library                : x264 core 148 r2638 7599210
Encoding settings              : cabac=1 / ref=5 / deblock=1:-1:-1 / analyse=0x3:0x113 / me=umh / subme=9 / psy=1 / psy_rd=1.00:0.15 / mixed_ref=1 / me_range=24 / chroma_me=1 / trellis=2 / 8x8dct=1 / cqm=0 / deadzone=21,11 / fast_pskip=0 / chroma_qp_offset=-3 / threads=17 / lookahead_threads=1 / sliced_threads=0 / nr=0 / decimate=1 / interlaced=0 / bluray_compat=0 / constrained_intra=0 / bframes=3 / b_pyramid=2 / b_adapt=2 / b_bias=0 / direct=3 / weightb=1 / open_gop=0 / weightp=2 / keyint=240 / keyint_min=23 / scenecut=40 / intra_refresh=0 / rc_lookahead=60 / rc=2pass / mbtree=1 / bitrate=949 / ratetol=1.0 / qcomp=0.60 / qpmin=0 / qpmax=69 / qpstep=4 / cplxblur=20.0 / qblur=0.5 / vbv_maxrate=31250 / vbv_bufsize=31250 / nal_hrd=none / filler=0 / ip_ratio=1.40 / aq=1:1.00
Language                       : English
Default                        : Yes
Forced                         : Yes
Color range                    : Limited
Color primaries                : BT.709
Matrix coefficients            : BT.709

Audio #1
ID                             : 2
Format                         : AAC
Format/Info                    : Advanced Audio Codec
Format profile                 : LC
Codec ID                       : A_AAC-2
Duration                       : 1 h 48 min
Bit rate                       : 90.4 kb/s
Channel(s)                     : 6 channels
Channel positions              : Front: L C R, Side: L R, LFE
Sampling rate                  : 48.0 kHz
Frame rate                     : 46.875 FPS (1024 SPF)
Compression mode               : Lossy
Delay relative to video        : 979 ms
Stream size                    : 70.4 MiB (8%)
Title                          : WWW.GOPISAHI.PW
Language                       : Hindi
Default                        : Yes
Forced                         : No

Audio #2
ID                             : 4
Format                         : AAC
Format/Info                    : Advanced Audio Codec
Format profile                 : LC
Codec ID                       : A_AAC-2
Duration                       : 1 h 48 min
Bit rate                       : 89.9 kb/s
Channel(s)                     : 6 channels
Channel positions              : Front: L C R, Side: L R, LFE
Sampling rate                  : 48.0 kHz
Frame rate                     : 46.875 FPS (1024 SPF)
Compression mode               : Lossy
Delay relative to video        : -21 ms
Stream size                    : 70.0 MiB (8%)
Title                          : WWW.GOPISAHI.PW
Language                       : English
Default                        : No
Forced                         : No

Text
ID                             : 3
Format                         : UTF-8
Codec ID                       : S_TEXT/UTF8
Codec ID/Info                  : UTF-8 Plain Text
Duration                       : 1 h 42 min
Bit rate                       : 52 b/s
Count of elements              : 1251
Stream size                    : 39.7 KiB (0%)
Title                          :
Language                       : English


Category:Movies > Hollywood Dub
Lang:Hindi
Total Size:880.77 MB
Info Hash:bf5e3b9d6f502d5edd2c7f80f65b8e7969ec3ba3
Added By:Unknown
Date Added:10-05-2018 16:30:17
Views:802
Hits:72

Download Torrent

Ratings:Not Yet Rated (Log in to rate it)


Tracker:
udp://9.rarbg.com:2740/announce


File List: 


Comments

No comments still posted

Powered by 10 Hamsters v2-svn -|- Page Generated In 0.196376 secs.
-|- RSS FEED
Theme By: Nikkbu