[Login] or [Signup]
Login
Username:
Password:
[Signup]
[Recover Account]


Poll


You must be logged in to view polls



Torrent Details For "Spider-Man Homecoming 2017 1080p BluRay x264[Hindi (Org) - English ] - Hon3y"

Spider-Man Homecoming 2017 1080p BluRay x264[Hindi (Org) - English ] - Hon3y

Download this torrent | Magnet Download
Health:
Seeds: 0
Leechers: 45
Completed: 100 
Last Checked: 20-12-2017 06:59:23
External Torrent
Update Stats
Download Magnet


Poster


iMDB
Imdb Picture Title: Spider-Man: Homecoming
Year: 2017
Runtime: 133 minutes
Votes: 14742
Rating: 8.3/10
Language: English
Country: USA
All Genres: Action, Adventure, Sci-Fi
Plot Outline: Several months after the events of Captain America: Civil War, Peter Parker, with the help of his mentor Tony Stark, tries to balance his life as an ordinary high school student in Queens, New York City while fighting crime as his superhero alter ego Spider-Man as a new threat, the Vulture, emerges.
Director: Jon Watts
Writing By: Jonathan Goldstein,John Francis Daley,Jon Watts,Christopher Ford,Chris McKenna,Erik Sommers,Jonathan Goldstein,John Francis Daley,Stan Lee,Steve Ditko,
Produced By: Victoria Alonso,Avi Arad,Mitchell Bell,Eric Hauserman Carroll,Louis D'Esposito,Kevin Feige,Jeremy Latcham,Stan Lee,Rachel O'Connor,Amy Pascal,Matt Tolmach,Patricia Whitcher,
Music: Michael Giacchino
Plot:

Thrilled by his experience with the Avengers, Peter returns home, where he lives with his Aunt May, under the watchful eye of his new mentor Tony Stark, Peter tries to fall back into his normal daily routine - distracted by thoughts of proving himself to be more than just your friendly neighborhood Spider-Man - but when the Vulture emerges as a new villain, everything that Peter holds most important will be threatened.

- Written by Benett Sullivan

Peter Parker is exploring the concept of becoming an Avenger. Tony Stark tries to help Peter, but he does not have total faith in Spider-Man to become a hero. And so Peter Parker, aka Spider-Man sets off to prove he is worthy to become an Avenger!

- Written by David Norton

A young Peter Parker/Spider-Man begins to navigate his newfound identity as the web-slinging super hero Spider-Man. Thrilled by his experience with the Avengers, Peter returns home, where he lives with his Aunt May, under the watchful eye of his new mentor Tony Stark. Peter tries to fall back into his normal daily routine - distracted by thoughts of proving himself to be more than just your friendly neighborhood Spider-Man - but when the Vulture emerges as a new villain, everything that Peter holds most important will be threatened.

- Written by Flick Direct

Several months after the events of Captain America: Civil War, Peter Parker, with the help of his mentor Tony Stark, tries to balance his life as an ordinary high school student in Queens, New York City while fighting crime as his superhero alter ego Spider-Man as a new threat, the Vulture, emerges.


Cast:
Tom Holland as Peter Parker / Spider-Man
Michael Keaton as Adrian Toomes / Vulture
Robert Downey Jr. as Tony Stark / Iron Man
Marisa Tomei as May Parker
Jon Favreau as Happy Hogan
Gwyneth Paltrow as Pepper Potts
Zendaya as Michelle
Donald Glover as Aaron Davis
Jacob Batalon as Ned
Laura Harrier as Liz
Trailers:
Trailer With Commentary
Spiderman Homecoming
IMDb Exclusive
International Trailer #3
Trailer #3
Trailer #2
Trailer #1


Watch-Free-HD     Download

Details
Name:Spider-Man Homecoming 2017 1080p BluRay x264[Hindi (Org) - English ] - Hon3y
Description:
Format                      : Matroska
Format version              : Version 4 / Version 2
File size                   : 4.79 GiB
Duration                    : 2 h 13 min
Overall bit rate            : 5 141 kb/s
Movie name                  : Spider-Man Homecoming 2017- [email protected] @ Hon3y

Video
ID                          : 1
Format                      : AVC
Format/Info                 : Advanced Video Codec
Format profile              : [email protected]
Format settings, CABAC      : Yes
Format settings, RefFrames  : 5 frames
Codec ID                    : V_MPEG4/ISO/AVC
Duration                    : 2 h 13 min
Bit rate                    : 3 921 kb/s
Width                       : 1 920 pixels
Height                      : 800 pixels
Display aspect ratio        : 2.40:1
Frame rate mode             : Constant
Frame rate                  : 23.976 (24000/1001) FPS

Audio #1
ID                          : 2
Format                      : AC-3
Format/Info                 : Audio Coding 3
Format settings, Endianness : Big
Codec ID                    : A_AC3
Duration                    : 2 h 13 min
Bit rate mode               : Constant
Bit rate                    : 448 kb/s
Channel(s)                  : 6 channels
Channel positions           : Front: L C R, Side: L R, LFE
Sampling rate               : 48.0 kHz
Frame rate                  : 31.250 FPS (1536 SPF)
Bit depth                   : 16 bits
Compression mode            : Lossy
Stream size                 : 428 MiB (9%)
Language                    : Hindi

Audio #2
ID                          : 3
Format                      : DTS
Format/Info                 : Digital Theater Systems
Mode                        : 16
Format settings, Endianness : Big
Codec ID                    : A_DTS
Duration                    : 2 h 13 min
Bit rate mode               : Constant
Bit rate                    : 768 kb/s
Channel(s)                  : 6 channels
Channel positions           : Front: L C R, Side: L R, LFE
Sampling rate               : 48.0 kHz
Frame rate                  : 93.750 FPS (512 SPF)
Bit depth                   : 24 bits
Compression mode            : Lossy
Stream size                 : 733 MiB (15%)
Language                    : English

Text #1
ID                          : 4
Format                      : UTF-8
Codec ID                    : S_TEXT/UTF8
Codec ID/Info               : UTF-8 Plain Text
Duration                    : 2 h 13 min
Bit rate                    : 69 b/s
Count of elements           : 1928
Stream size                 : 67.4 KiB (0%)
Title                       : CHI
Language                    : English
Default                     : Yes

Original BD50 Untouched Audio : Credit goes to Rohit

                 
Category:Movies > Hollywood Dub
Lang:Hindi
Total Size:4.84 GB
Info Hash:e2d13749acfc0103f5f6cc84ba6dc843a5904319
Added By:Hon3y
Date Added:03-11-2017 19:58:39
Views:699
Hits:180

Download Torrent

Ratings:Not Yet Rated (Log in to rate it)


Tracker:
http://ipv4.tracker.harry.lu/announce

This Torrent also has backup trackers
URLSeedersLeechersCompleted
http://ipv4.tracker.harry.lu/announce0515
http://ipv4.tracker.harry.lu:80/announce0515
http://t.nyaatracker.com/announce84822
http://82.209.230.66/announce046
http://open.kickasstracker.com/announce050
http://163.172.180.68/announce0515
http://t.nyaatracker.com:80/announce120
http://retracker.mgts.by:80/announce046
http://45.33.11.224/announce120
http://tracker.torrentyorg.pl:80/announce050
http://pt.lax.mx:80/announce0043
http://103.3.63.11:80/announce84822
http://fxtt.ru:80/announce020
http://tracker.electro-torrent.pl:80/announce050
http://tracker.torrentyorg.pl:80/announce050


File List: 


Comments

<< Previous      Next >>
1 - 1

[Report] Posted: 04-11-2017 at 16:30:35
vrushabh



Uploaded: 0.00 B
Downloaded: 0.00 B
Ratio: ---

please upload bd 50

1 - 1
<< Previous      Next >>


Powered by 10 Hamsters v2-svn -|- Page Generated In 1.361773 secs.
-|- RSS FEED
Theme By: Nikkbu