[Login] or [Signup]
Login
Username:
Password:
[Signup]
[Recover Account]


Poll


You must be logged in to view polls



Torrent Details For "The Sorcerers Apprentice 2010 Dual Audio 720p BluRay x264 [Hindi + English] By ((SHANOO))"

The Sorcerers Apprentice 2010 Dual Audio 720p BluRay x264 [Hindi + English] By ((SHANOO))

Download this torrent | Magnet Download
Health:
Seeds: 0
Leechers: 1
Completed:
Last Checked: 05-11-2017 07:13:08
External Torrent
Update Stats
Download Magnet


Poster


iMDB
Imdb Picture Title: The Sorcerer's Apprentice
Year: 2010
Runtime: 109 minutes
Votes: 133889
Rating: 6.1/10
Language: English, Cantonese, Ukrainian
Country: USA
All Genres: Action, Adventure, Family, Fantasy
Plot Outline: Master sorcerer Balthazar Blake must find and train Merlin's descendant to defeat dark sorceress Morgana la Fée.
Tagline: It's The Coolest Job Ever.
Director: Jon Turteltaub
Writing By: Lawrence Konner,Mark Rosenthal,Matt Lopez,Matt Lopez,Doug Miro,Carlo Bernard,
Produced By: Cecile Leroy Beaulieu,Jerry Bruckheimer,Nicolas Cage,Todd Garner,Norman Golightly,Chad Oman,Pat Sandston,Mike Stenson,Barry H. Waldman,Ben Haber,
Music: Trevor Rabin
Cast:
Nicolas Cage as Balthazar
Jay Baruchel as Dave
Alfred Molina as Horvath
Teresa Palmer as Becky
Toby Kebbell as Drake Stone
Omar Benson Miller as Bennet
Monica Bellucci as Veronica
Alice Krige as Morgana
Jake Cherry as Young Dave
James A. Stephens as Merlin
Trailers:
The Sorcerer's Apprentice: Trailer #1
The Sorcerer's Apprentice - Trailer #3
The Sorcerer's Apprentice: Trailer #2
The Sorcerer's Apprentice - "Characters" Trailer
The Sorcerer's Apprentice - Trailer #3


Watch-Free-HD     Download

Details
Name:The Sorcerers Apprentice 2010 Dual Audio 720p BluRay x264 [Hindi + English] By ((SHANOO))
Description:
The Sorcerers Apprentice 2010



Uploaded By

First On Net By Shanoo

General
         Complete name          
The Sorcerers Apprentice 2010 Dual Audio 720p BluRay x264 [Hindi + English] By_((SHANOO))
Format                      : Matroska
Format version              : Version 4 / Version 2
File size                   : 945 MiB
Overall bit rate            : 1 002 Kbps
Encoded date                : UTC 2015-11-13 08:11:34
Writing application         : mkvmerge v8.5.2 ('Crosses') 32bit
Writing library             : libebml v1.3.3 + libmatroska v1.4.4

Video
ID                          : 1
Format                      : AVC
Format/Info                 : Advanced Video Codec
Format profile              : [email protected]
Format settings, CABAC      : Yes
Format settings, ReFrames   : 4 frames
Codec ID                    : V_MPEG4/ISO/AVC
Bit rate                    : 808 Kbps
Width                       : 1 280 pixels
Height                      : 544 pixels
Display aspect ratio        : 16:9
Frame rate mode             : Constant
Frame rate                  : 23.976 (24000/1001) fps
Color space                 : YUV
Chroma subsampling          : 4:2:0
Bit depth                   : 8 bits
Scan type                   : Progressive
Bits/(Pixel*Frame)          : 0.048
Stream size                 : 762 MiB (81%)
Writing library             : x264 core 146 r2538 121396c
Default                     : Yes
Forced                      : No

Audio
ID                          : 2
Format                      : AC-3
Format/Info                 : Audio Coding 3
Mode extension              : CM (complete main)
Format settings, Endianness : Big
Codec ID                    : A_AC3
Duration                    : 2h 11mn
Bit rate mode               : Constant
Bit rate                    : 192 Kbps
Channel(s)                  : 6 channels
Channel positions           : Front: L C R, Side: L R, LFE
Sampling rate               : 48.0 KHz
Frame rate                  : 31.250 fps (1536 spf)
Compression mode            : Lossy
Stream size                 : 181 MiB (19%)
Default                     : Yes
Forced                      : No

Text
ID                          : 3
Format                      : UTF-8
Codec ID                    : S_TEXT/UTF8
Codec ID/Info               : UTF-8 Plain Text
Bit rate                    : 68 bps
Count of elements           : 1879
Stream size                 : 65.0 KiB (0%)
Default                     : Yes
Forced                      : No







Category:Movies > 720P Bluray
Lang:Hindi
Total Size:844.03 MB
Info Hash:811f06615483085d4aed2ce9ab46bcdf18ab44f7
Added By:Shanoo
Date Added:31-10-2017 14:21:33
Views:291
Hits:64

Download Torrent

Ratings:Not Yet Rated (Log in to rate it)


Tracker:
http://tracker.nwps.ws:6969/announce

This Torrent also has backup trackers
URLSeedersLeechersCompleted
http://tracker.nwps.ws:6969/announce000
http://tracker.winglai.com/announce000
http://fr33dom.h33t.com:3310/announce000
http://exodus.desync.com:6969/announce000
http://torrent.gresille.org/announce000
http://tracker.trackerfix.com/announce000
http://tracker.windsormetalbattery.com/announce000
http://torrent-tracker.ru/announce.php000
http://bigfoot1942.sektori.org:6969/announce000
http://tracker.best-torrents.net:6969/announce000
http://announce.torrentsmd.com:6969/announce000
http://tracker.thepiratebay.org/announce000
http://tracker.istole.it/announce000
http://tracker.publicbt.com/announce000
http://tracker.ccc.de/announce000
http://mgtracker.org:2710/announce000
http://bttracker.crunchbanglinux.org:6969/announce000
http://tracker.ex.ua/announce000


File List: 


Comments

No comments still posted

Powered by 10 Hamsters v2-svn -|- Page Generated In 1.800761 secs.
-|- RSS FEED
Theme By: Nikkbu