[Login] or [Signup]
Login
Username:
Password:
[Signup]
[Recover Account]


Poll


You must be logged in to view polls



Torrent Details For "War of the Arrows (2011) BRRip 720p x264 [Dual Audio][Hindi +English]--prisak~~{HKRG}"

War of the Arrows (2011) BRRip 720p x264 [Dual Audio][Hindi +English]--prisak~~{HKRG}

Download this torrent | Magnet Download
Health:
Seeds: 0
Leechers: 2
Completed:
Last Checked: 01-10-2018 19:15:45
External Torrent
Update Stats
Download Magnet


Poster


iMDB
Imdb Picture Original Title: Choi-jong-byeong-gi hwal
Title: War of the Arrows
Year: 2011
Runtime: 128 minutes
Votes: 9305
Rating: 7.2/10
Language: Korean
Country: South Korea
All Genres: Action, History
Plot Outline: Set during the second Manchu invasion of Korea, Nam Yi, the best archer in Korea, goes up against the Qing Dynasty to save his younger sister Ja In - who was dragged away by Manchurian.
Tagline: A Hero Is Born The Legend Begins
Director: Han-min Kim
Writing By: Han-min Kim,
Produced By: Won-seok Jang,Sung-hwan Kim,
Music: Tae-seong Kim
Cast:
Hae-il Park as Nam-yi
Seung-ryong Ryu as Jyushinta
Mu-Yeol Kim as Seo-gun
Chae-won Moon as Ja-in
Han-wi Lee as Gap-yong
Gu-taek Kim as Kang-du
Kyeong-yeong Lee as Kim Mu-seon
Gi-woong Park as Prince Doreugon
Seung-joon Lee as Wanhan
Jae-goo Lee as Hu-man
Trailers:
U.S. Version


Watch-Free-HD     Download

Details
Name:War of the Arrows (2011) BRRip 720p x264 [Dual Audio][Hindi +English]--prisak~~{HKRG}
Description:
War of the Arrows (2011) BRRip 720p x264 [Dual Audio][Hindi +English] (Screens)--prisak~~{HKRG}

 

IMDB Details

 http://www.sworld4u.gq/2017/10...-720p-x264-dual.html

IMDB Link:

 http://www.imdb.com/title/tt2025526

Story:

Set during the second Manchu invasion of Korea, Nam Yi, the best archer in Korea, goes up against the Qing Dynasty to save his younger sister Ja In - who was dragged away by Manchurian.

Genre:

Action | History

Release date:

10 August 2011 (South Korea)

Media Info

General

Complete name                            : War of the Arrows (2011) BRRip 720p x264 [Dual Audio][Hindi +English]--prisak~~{HKRG}.mkv
Format                                   : Matroska
Format version                           : Version 4 / Version 2
File size                                : 1.08 GiB
Duration                                 : 2h 2mn
Overall bit rate                         : 1 268 Kbps
Movie name                               : War of the Arrows (2011) BRRip 720p x264 [Dual Audio][Hindi +English]--prisak~~{HKRG}
Encoded date                             : UTC 2014-08-27 17:39:10
Writing application                      : mkvmerge v7.1.0 ('Good Love') 32bit built on Jul 27 2014 12:59:18
Writing library                          : libebml v1.3.0 + libmatroska v1.4.1
DURATION                                 : 02:02:13.472000000
NUMBER_OF_FRAMES                         : 229171
NUMBER_OF_BYTES                          : 117335552
_STATISTICS_WRITING_APP                  : mkvmerge v7.1.0 ('Good Love') 32bit built on Jul 27 2014 12:59:18
_STATISTICS_WRITING_DATE_UTC             : 2014-08-27 17:39:10
_STATISTICS_TAGS                         : BPS DURATION NUMBER_OF_FRAMES NUMBER_OF_BYTES

Video
ID                                       : 1
Format                                   : AVC
Format/Info                              : Advanced Video Codec
Format profile                           : [email protected]
Format settings, CABAC                   : Yes
Format settings, ReFrames                : 3 frames
Codec ID                                 : V_MPEG4/ISO/AVC
Duration                                 : 2h 2mn
Bit rate                                 : 947 Kbps
Width                                    : 1 280 pixels
Height                                   : 544 pixels
Display aspect ratio                     : 2.35:1
Frame rate mode                          : Constant
Frame rate                               : 23.976 fps
Color space                              : YUV
Chroma subsampling                       : 4:2:0
Bit depth                                : 8 bits
Scan type                                : Progressive
Bits/(Pixel*Frame)                       : 0.057
Stream size                              : 806 MiB (73%)
Title                                    : War of the Arrows (2011) BRRip 720p x264 [Dual Audio][Hindi +English]--prisak~~{HKRG}
Writing library                          : x264 core 80 r1376M 3feaec2
Encoding settings                        : cabac=1 / ref=3 / deblock=1:-1:-1 / analyse=0x3:0x113 / me=hex / subme=7 / psy=1 / psy_rd=1.0:0.0 / mixed_ref=1 / me_range=16 / chroma_me=1 / trellis=1 / 8x8dct=1 / cqm=0 / deadzone=21,11 / fast_pskip=1 / chroma_qp_offset=-2 / threads=12 / sliced_threads=0 / nr=0 / decimate=1 / mbaff=0 / constrained_intra=0 / bframes=3 / b_pyramid=0 / b_adapt=1 / b_bias=0 / direct=1 / wpredb=1 / wpredp=2 / keyint=250 / keyint_min=25 / scenecut=40 / rc_lookahead=40 / rc=2pass / mbtree=1 / bitrate=947 / ratetol=1.0 / qcomp=0.60 / qpmin=10 / qpmax=51 / qpstep=4 / cplxblur=20.0 / qblur=0.5 / ip_ratio=1.40 / aq=1:1.00
Language                                 : English
Default                                  : Yes
Forced                                   : No

Audio #1
ID                                       : 2
Format                                   : AC-3
Format/Info                              : Audio Coding 3
Mode extension                           : CM (complete main)
Format settings, Endianness              : Big
Codec ID                                 : A_AC3
Duration                                 : 2h 2mn
Bit rate mode                            : Constant
Bit rate                                 : 192 Kbps
Channel(s)                               : 2 channels
Channel positions                        : Front: L R
Sampling rate                            : 48.0 KHz
Bit depth                                : 16 bits
Compression mode                         : Lossy
Stream size                              : 168 MiB (15%)
Title                                    : prisak {{HKRG}}
Language                                 : Hindi
Default                                  : Yes
Forced                                   : No

Audio #2
ID                                       : 3
Format                                   : AC-3
Format/Info                              : Audio Coding 3
Mode extension                           : CM (complete main)
Format settings, Endianness              : Big
Codec ID                                 : A_AC3
Duration                                 : 2h 2mn
Bit rate mode                            : Constant
Bit rate                                 : 128 Kbps
Channel(s)                               : 2 channels
Channel positions                        : Front: L R
Sampling rate                            : 48.0 KHz
Bit depth                                : 16 bits
Compression mode                         : Lossy
Stream size                              : 112 MiB (10%)
Title                                    : prisak {{HKRG}}
Language                                 : English
Default                                  : No
Forced                                   : No

-:: ScreenshotS ::-


           

 
Category:Movies > Hollywood Dub
Lang:Hindi
Total Size:1.09 GB
Info Hash:0bd4e5ea0c1cfe956c8d0611f53a22029039075f
Added By:Shrawankk
Date Added:02-10-2017 07:45:54
Views:583
Hits:131

Download Torrent

Ratings:Not Yet Rated (Log in to rate it)


Tracker:
http://tracker.nwps.ws:6969/announce

This Torrent also has backup trackers
URLSeedersLeechersCompleted
http://tracker.nwps.ws:6969/announce000
http://tracker.winglai.com/announce000
http://fr33dom.h33t.com:3310/announce000
http://exodus.desync.com:6969/announce000
http://torrent.gresille.org/announce000
http://tracker.trackerfix.com/announce000
http://tracker.windsormetalbattery.com/announce000
http://torrent-tracker.ru/announce.php000
http://bigfoot1942.sektori.org:6969/announce000
http://tracker.best-torrents.net:6969/announce000
http://announce.torrentsmd.com:6969/announce000
http://tracker.thepiratebay.org/announce000
http://tracker.istole.it/announce000
http://tracker.publicbt.com/announce000
http://torrent.gresille.org/announce000
http://bttracker.crunchbanglinux.org:6969/announce000
http://tracker.aletorrenty.pl:2710/announce000


File List: 


Comments

<< Previous      Next >>
1 - 1

[Report] Posted: 03-11-2017 at 10:16:44
wiki



Uploaded: 0.00 B
Downloaded: 0.00 B
Ratio: ---

Bindas SHARe Thankx BRO

1 - 1
<< Previous      Next >>


Powered by 10 Hamsters v2-svn -|- Page Generated In 0.709659 secs.
-|- RSS FEED
Theme By: Nikkbu