[Login] or [Signup]
Login
Username:
Password:
[Signup]
[Recover Account]


Poll


You must be logged in to view polls



Torrent Details For "Tangled Ever After 2012 720p Esub BDRIP Dual Audio English Hindi GOPISAHI"

Tangled Ever After 2012 720p Esub BDRIP Dual Audio English Hindi GOPISAHI

Download this torrent | Magnet Download
Health:
Seeds: 0
Leechers: 21
Completed:
Last Checked: 11-10-2017 16:59:26
External Torrent
Update Stats
Download Magnet


Poster


iMDB
Imdb Picture Title: Tangled Ever After
Year: 2012
Runtime: 6 minutes
Votes: 13799
Rating: 7.7/10
Language: English
Country: USA
All Genres: Animation, Short, Action, Comedy, Family
Plot Outline: Rapunzel and Flynn Rider have their wedding, but Pascal and Maximus must recover the rings they lose in mid-ceremony.
Director: Nathan Greno
Byron Howard
Writing By: Nathan Greno,Byron Howard,Mark Kennedy,Robert L. Baird,Daniel Gerson,
Produced By: John Lasseter,Aimee Scribner,
Music: Kevin Kliesch
Cast:
Mandy Moore as Rapunzel
Zachary Levi as Flynn Rider
Alan Dale as Priest
Paul F. Tompkins as Short Thug
Kari Wahlgren as Queen
Mark Allan Stewart as Dove Caller
Byron Howard as Lantern Wrangler / Chef
Nathan Greno as Guard / Maximus / Stabbington Brothers
Sophia I. Aguirre as Additional Voices
Robert Bagnell as Additional Voices


Watch-Free-HD     Download

Details
Name:Tangled Ever After 2012 720p Esub BDRIP Dual Audio English Hindi GOPISAHI
Description:
Format                         : Matroska
Format version                 : Version 4 / Version 2
File size                      : 46.1 MiB
Duration                       : 6 min 29 s
Overall bit rate               : 994 kb/s
Movie name                     : Tangled Ever After 2012

Video
Format                         : AVC
Codec ID                       : V_MPEG4/ISO/AVC
Duration                       : 6 min 29 s
Bit rate                       : 799 kb/s
Width                          : 1 280 pixels
Height                         : 720 pixels
Display aspect ratio           : 16:9
Frame rate mode                : Constant
Frame rate                     : 23.976 (24000/1001) FPS
Stream size                    : 37.1 MiB (80%)
Title                          : GOPISAHI
Writing library                : x264 core 148 r2708 86b7198

Audio #1
Duration                       : 6 min 29 s
Bit rate                       : 96.0 kb/s
Channel(s)                     : 2 channels
Channel positions              : Front: L R
Sampling rate                  : 44.1 kHz
Frame rate                     : 43.066 FPS (1024 SPF)
Stream size                    : 4.46 MiB (10%)
Language                       : English

Audio #2
Format                         : AAC
Duration                       : 6 min 29 s
Bit rate                       : 96.0 kb/s
Channel(s)                     : 2 channels
Channel positions              : Front: L R
Sampling rate                  : 48.0 kHz
Frame rate                     : 46.875 FPS (1024 SPF)
Stream size                    : 4.47 MiB (10%)
Language                       : Hindi

Text
Language                       : English


Category:Movies > Hollywood Dub
Lang:Hindi
Total Size:46.32 MB
Info Hash:ce4e0740fb7342d68c996c5a0586c004cdcb7511
Added By:gopisahi
Date Added:06-09-2017 16:06:08
Views:605
Hits:96

Download Torrent

Ratings:Not Yet Rated (Log in to rate it)


Tracker:
udp://tracker.coppersurfer.tk:6969/announce


File List: 


Comments

No comments still posted

Powered by 10 Hamsters v2-svn -|- Page Generated In 0.191401 secs.
-|- RSS FEED
Theme By: Nikkbu