[Login] or [Signup]
Login
Username:
Password:
[Signup]
[Recover Account]


Poll


You must be logged in to view polls



Torrent Details For "Chaturango(2017) Zee Bangla Cinema - 2CD - HDTV Rip[Mp4 - AC3(5.1Ch)]"

Chaturango(2017) Zee Bangla Cinema - 2CD - HDTV Rip[Mp4 - AC3(5.1Ch)]

Download this torrent | Magnet Download
Health:
Seeds: 0
Leechers: 3
Completed:
Last Checked: 27-12-2017 22:45:40
External Torrent
Update Stats
Download Magnet


Poster


Watch-Free-HD     Download

Details
Name:Chaturango(2017) Zee Bangla Cinema - 2CD - HDTV Rip[Mp4 - AC3(5.1Ch)]
Description:
   Chaturango(2017) Zee Bangla Cinema -
2CD - HDTV Rip[Mp4 - AC3(5.1Ch)]  
 




General
Format                                   : MPEG-4
Format profile                           : Base Media
Codec ID                                 : isom (isom)
File size                                : 1.40 GiB
Duration                                 : 2 h 25 min

Video
ID                                       : 1
Format                                   : AVC
Format/Info                              : Advanced Video Codec
Format profile                           : [email protected]
Format settings, CABAC                   : Yes
Format settings, RefFrames               : 4 frames
Codec ID                                 : avc1
Codec ID/Info                            : Advanced Video Coding
Duration                                 : 2 h 25 min
Bit rate                                 : 1 184 kb/s
Maximum bit rate                         : 3 789 kb/s
Width                                    : 720 pixels
Height                                   : 304 pixels
Display aspect ratio                     : 2.35:1
Frame rate mode                          : Constant
Frame rate                               : 25.000 FPS
Color space                              : YUV
Chroma subsampling                       : 4:2:0
Bit depth                                : 8 bits
Scan type                                : Progressive
Bits/(Pixel*Frame)                       : 0.216
Stream size                              : 1.20 GiB (86%)

Audio
ID                                       : 2
Format                                   : AC-3
Format/Info                              : Audio Coding 3
Format settings, Endianness              : Big
Codec ID                                 : ac-3
Duration                                 : 2 h 25 min
Bit rate mode                            : Constant
Bit rate                                 : 192 kb/s
Maximum bit rate                         : 203 kb/s
Channel(s)                               : 6 channels
Channel positions                        : Front: L C R, Side: L R, LFE
Sampling rate                            : 48.0 kHz
Stream size                              : 200 MiB (14%)


Thumbnail




Category:Movies > Bengali
Lang:Bengali  Bengali
Total Size:1.40 GB
Info Hash:cc6ef9307ba69d04943de4bc5bb11694bec8bc28
Added By:Pherarim
Date Added:31-08-2017 08:04:39
Views:692
Hits:108

Download Torrent

Ratings:Not Yet Rated (Log in to rate it)


Tracker:
udp://9.rarbg.me:2710/announce


File List: 


Comments

No comments still posted

Powered by 10 Hamsters v2-svn -|- Page Generated In 0.773303 secs.
-|- RSS FEED
Theme By: Nikkbu