[Login] or [Signup]
Login
Username:
Password:
[Signup]
[Recover Account]


Poll


You must be logged in to view polls



Torrent Details For "The Fate Of The Furious (2017) 1080p x264 [Hindi Audio 5.1 CH @ 384 kbps Only] [Dzrg Torrents®..."

The Fate Of The Furious (2017) 1080p x264 [Hindi Audio 5.1 CH @ 384 kbps Only] [Dzrg Torrents®...

Download this torrent | Magnet Download
Health:
Seeds: 0
Leechers: 0
Completed:
Last Checked: 14-10-2018 17:06:55
External Torrent
Update Stats
Download Magnet


Poster


iMDB
Imdb Picture Title: The Fate of the Furious
Year: 2017
Runtime: 136 minutes
Votes: 8308
Rating: 7.5/10
Language: English
Country: USA
All Genres: Action, Crime, Thriller
Plot Outline: When a mysterious woman seduces Dom into the world of terrorism and a betrayal of those closest to him, the crew face trials that will test them as never before.
Tagline: New roads ahead
Director: F. Gary Gray
Writing By: Chris Morgan,Gary Scott Thompson,
Produced By: Ricardo Del Río,Vin Diesel,Michael Fottrell,Santiago Garcia Galvan,Finni Johannsson,Cliff Lanning,Amanda Lewis,Amanda Lewis,Sharon Lopez,F. Valentino Morales,Chris Morgan,Neal H. Moritz,Samantha Vincent,
Music: Brian Tyler
Plot:

Now that Dom and Letty are on their honeymoon and Brian and Mia have retired from the game-and the rest of the crew has been exonerated-the globetrotting team has found a semblance of a normal life. But when a mysterious woman seduces Dom into the world of crime he can't seem to escape and a betrayal of those closest to him, they will face trials that will test them as never before. From the shores of Cuba and the streets of New York City to the icy plains off the arctic Barents Sea, the elite force will crisscross the globe to stop an anarchist from unleashing chaos on the world's stage... and to bring home the man who made them a family.

- Written by harpreet phamber

The family has been doing their normal thing. Everything has been cool with them as it always has. All of a sudden, a mysterious decoy(woman) lured Dom and enthralled him to the state of betrayal.. He betrayed his family and set them to face trials they never imagined to face alone without Dom.

- Written by guyzid

With Dom and Letty on their honeymoon in Cuba, a mysterious woman somehow manages to make Dom betray the family he has fought hard to protect. Now forcing to team up with Mr. nobody and Deckard Shaw, the team must travel from New York City to the icy plains of the Barents Sea to bring home the man who made them a family,

When a mysterious woman seduces Dom into the world of terrorism and a betrayal of those closest to him, the crew face trials that will test them as never before.


Cast:
Vin Diesel as Dom
Jason Statham as Deckard
Dwayne Johnson as Hobbs
Michelle Rodriguez as Letty
Tyrese Gibson as Roman
Ludacris as Tej Parker
Charlize Theron as Cipher
Kurt Russell as Mr. Nobody
Nathalie Emmanuel as Ramsey
Luke Evans as Owen
Trailers:
Trailer #3
Big Game Spot
Official Trailer
Trailer Tease


Watch-Free-HD     Download

Details
Name:The Fate Of The Furious (2017) 1080p x264 [Hindi Audio 5.1 CH @ 384 kbps Only] [Dzrg Torrents®...
Description:



The Fate Of The Furious (2017) 1080p x264 [Hindi Audio 5.1 CH @ 384 kbps Only] [Dzrg Torrents®].mkv


General
Format                                   : Matroska
Format version                           : Version 4 / Version 2
File size                                : 3.90 GiB
Duration                                 : 2 h 15 min
Overall bit rate                         : 4 109 kb/s
Movie name                               : The Fate Of The Furious (2017) 1080p x264 [Hindi Audio 5.1 CH @ 384 kbps Only] [Dzrg Torrents®].mkv
Encoded date                             : UTC 2017-08-09 04:03:35
Writing application                      : mkvmerge v10.0.0 ('To Drown In You') 64bit
Writing library                          : libebml v1.3.4 + libmatroska v1.4.5



Video
ID                                       : 1
Format                                   : AVC
Format/Info                              : Advanced Video Codec
Format profile                           : [email protected]
Format settings, CABAC                   : Yes
Format settings, ReFrames                : 5 frames
Codec ID                                 : V_MPEG4/ISO/AVC
Duration                                 : 2 h 15 min
Bit rate                                 : 3 700 kb/s
Width                                    : 1 920 pixels
Height                                   : 800 pixels
Display aspect ratio                     : 2.40:1
Frame rate mode                          : Constant
Frame rate                               : 23.976 (24000/1001) FPS
Color space                              : YUV
Chroma subsampling                       : 4:2:0
Bit depth                                : 8 bits
Scan type                                : Progressive
Bits/(Pixel*Frame)                       : 0.100
Stream size                              : 3.51 GiB (90%)
Writing library                          : x264 core 148 r2744 b97ae06
Language                                 : English
Default                                  : Yes
Forced                                   : No
Color range                              : Limited
Color primaries                          : Generic film
Transfer characteristics                 : BT.709
Matrix coefficients                      : BT.709





Audio
ID                                       : 2
Format                                   : AC-3
Format/Info                              : Audio Coding 3
Mode extension                           : CM (complete main)
Format settings, Endianness              : Big
Codec ID                                 : A_AC3
Duration                                 : 2 h 15 min
Bit rate mode                            : Constant
Bit rate                                 : 384 kb/s
Channel(s)                               : 6 channels
Channel positions                        : Front: L C R, Side: L R, LFE
Sampling rate                            : 48.0 kHz
Frame rate                               : 31.250 FPS (1536 spf)
Bit depth                                : 16 bits
Compression mode                         : Lossy
Stream size                              : 373 MiB (9%)
Language                                 : Hindi
Default                                  : Yes
Forced                                   : No



Text
ID                                       : 3
Format                                   : PGS
Muxing mode                              : zlib
Codec ID                                 : S_HDMV/PGS
Codec ID/Info                            : Picture based subtitle format used on BDs/HD-DVDs
Duration                                 : 2 h 4 min
Bit rate                                 : 25.7 kb/s
Count of elements                        : 3682
Stream size                              : 22.8 MiB (1%)
Language                                 : English
Default                                  : Yes
Forced                                   : No


[size=medium]Menu
00:00:00.000                             : en:00:00:00.000
00:13:08.913                             : en:00:13:08.913
00:20:30.771                             : en:00:20:30.771
00:26:38.638                             : en:00:26:38.638
00:32:26.778                             : en:00:32:26.778
00:36:40.573                             : en:00:36:40.573
00:43:35.613                             : en:00:43:35.613
00:47:45.779                             : en:00:47:45.779
00:56:00.732                             : en:00:56:00.732
01:04:08.302                             : en:01:04:08.302
01:09:08.060                             : en:01:09:08.060
01:13:24.274                             : en:01:13:24.274
01:21:25.714                             : en:01:21:25.714
01:29:29.947                             : en:01:29:29.947
01:35:12.456                             : en:01:35:12.456
01:39:55.781                             : en:01:39:55.781
01:45:00.711                             : en:01:45:00.711
01:53:01.858                             : en:01:53:01.858
02:01:51.262                             : en:02:01:51.262
02:06:45.097                             : en:02:06:45.097[/size]



Category:Movies > Hollywood Dub
Lang:Hindi
Total Size:3.90 GB
Info Hash:48fe33ef6cd99a84e4fafc32bd82407c433c0ad5
Added By:DzrgTorrents
Date Added:09-08-2017 03:51:25
Views:690
Hits:215

Download Torrent

Ratings:Not Yet Rated (Log in to rate it)


Tracker:
udp://tracker.coppersurfer.tk:6969

This Torrent also has backup trackers
URLSeedersLeechersCompleted
http://opentracker-milanesi.rhcloud.com/announce030
http://open.kickasstracker.com/announce130
http://opentracker-milanesi.rhcloud.com:80/announce030
http://open.kickasstracker.com:443/announce130
http://opentracker-milanesi.rhcloud.com:443/announce030


File List: 


Comments

<< Previous      Next >>
1 - 4

[Report] Posted: 09-08-2017 at 04:23:18
DzrgTorrents



Uploaded: 0.00 B
Downloaded: 0.00 B
Ratio: ---

Perfectly Synced..

[Report] Posted: 09-08-2017 at 04:24:44
HDSector



Uploaded: 0.00 B
Downloaded: 0.00 B
Ratio: ---

:love  great work . very nice

[Report] Posted: 09-08-2017 at 12:21:50
Damn



Uploaded: 0.00 B
Downloaded: 0.00 B
Ratio: ---

720p main bhi kar de bhai ... think about others and let them enjoy in 720p perfect sync

[Report] Posted: 12-08-2017 at 04:54:17
dhaldia9028



Uploaded: 0.00 B
Downloaded: 0.00 B
Ratio: ---

how to download movie plz  help

1 - 4
<< Previous      Next >>


Powered by 10 Hamsters v2-svn -|- Page Generated In 1.571490 secs.
-|- RSS FEED
Theme By: Nikkbu